Jump to content
Olá, se você gosta do nosso trabalho, deixe um comentário e dê uma reação é muito importante o autor agradece!

Ford V Ferrari DVDSCR (2019) - Hive-CM8.


Bugzito
 Share

Recommended Posts

Ford.V.Ferrari.2019.1080P.DVDScr.X264.AC3.SHQ.Hive-CM8 :film4::new:

 

poster_opt.jpg

 

Hidden Content

    Give reaction to this post to see the hidden content.

 

 

:info:

 

General

Complete name :Ford.V.Ferrari.2019.1080P.DVDScr.X264.AC3.SHQ.Hiv e-CM8

Format : Matroska

Format version : Version 2

File size : 5.80 GiB

Duration : 2h 32mn

Overall bit rate mode : Variable

Overall bit rate : 5 444 Kbps

Encoded date : UTC 2020-02-26 22:46:46

Writing application : mkvmerge v5.6.0 ('Kenya Kane') built on May 27 2012 16:44:04

Writing library : libebml v1.2.3 + libmatroska v1.3.0

 

Video

ID : 1

Format : AVC

Format/Info : Advanced Video Codec

Format profile : [email protected]

Format settings, CABAC : Yes

Format settings, ReFrames : 5 frames

Muxing mode : Header stripping

Codec ID : V_MPEG4/ISO/AVC

Duration : 2h 32mn

Bit rate mode : Variable

Bit rate : 4 888 Kbps

Maximum bit rate : 8 000 Kbps

Width : 1 920 pixels

Height : 800 pixels

Display aspect ratio : 2.40:1

Frame rate mode : Constant

Frame rate : 23.976 fps

Standard : NTSC

Color space : YUV

Chroma subsampling : 4:2:0

Bit depth : 8 bits

Scan type : Progressive

Bits/(Pixel*Frame) : 0.133

Stream size : 5.21 GiB (90%)

Language : English

Default : Yes

Forced : No

Color primaries : BT.709

Transfer characteristics : BT.709

Matrix coefficients : BT.709

Color range : Limited

 

Audio

ID : 2

Format : AC-3

Format/Info : Audio Coding 3

Mode extension : CM (complete main)

Format settings, Endianness : Big

Muxing mode : Header stripping

Codec ID : A_AC3

Duration : 2h 32mn

Bit rate mode : Constant

Bit rate : 448 Kbps

Channel(s) : 6 channels

Channel positions : Front: L C R, Side: L R, LFE

Sampling rate : 48.0 KHz

Bit depth : 16 bits

Compression mode : Lossy

Stream size : 489 MiB (8%)

Default : Yes

Forced : No

 

:elenco:

 

Matt Damon , Christian Bale , Jon Bernthal , Caitriona Balfe , Josh Lucas , Noah Jupe , Tracy Letts , Remo Girone , Ray McKinnon ,

JJ Feild , Jack McMullen , Corrado Invernizzi , Joe Williamson , Ian Harding , Christopher Darga

 

 

:sinopse:

 

American car designer Carroll Shelby and driver Ken Miles battle corporate interference| the laws of physics and their own personal demons to build a

revolutionary race car for Ford and challenge Ferrari at the 24 Hours of Le Mans in 1966.

 

 

:screenshots:

 

 

viewer.php?file=06127001202223009896.png

14896296321474582218_thumb.png

16946766068212447401_thumb.png

 

 

 

 

:trailer:

 

 

 

:download:

 

:multihost:

Hidden Content

    Give reaction to this post to see the hidden content.

 

Link to comment
Share on other sites

Create an account or sign in to comment

You need to be a member in order to leave a comment

Create an account

Sign up for a new account in our community. It's easy!

Register a new account

Sign in

Already have an account? Sign in here.

Sign In Now
 Share

×
×
  • Create New...