Jump to content
Olá, se você gosta do nosso trabalho, deixe um comentário e dê uma reação é muito importante o autor agradece!

Knives Out (2019) DVDScr - Hive-CM8


Bugzito
 Share

Recommended Posts

Knives.Out.2019.DVDScr.XVID.AC3.HQ.Hive-CM8 :film4: 

 

poster_opt.jpg

 

:info:

 

General

Complete name : Knives.Out.2019.DVDScr.XVID.AC3.HQ.Hive-CM8.avi

Format : AVI

Format/Info : Audio Video Interleave

File size : 1.69 GiB

Duration : 2h 10mn

Overall bit rate : 1 859 Kbps

Writing application : Nandub v1.0rc2

Writing library : Nandub build 1853/release

 

Video

ID : 0

Format : MPEG-4 Visual

Format profile : Advanced [email protected]

Format settings, BVOP : 2

Format settings, QPel : Yes

Format settings, GMC : No warppoints

Format settings, Matrix : Default (H.263)

Muxing mode : Packed bitstream

Codec ID : XVID

Codec ID/Hint : XviD

Duration : 2h 10mn

Bit rate : 1 399 Kbps

Width : 720 pixels

Height : 384 pixels

Display aspect ratio : 1.85:1

Frame rate : 29.970 fps

Color space : YUV

Chroma subsampling : 4:2:0

Bit depth : 8 bits

Scan type : Progressive

Compression mode : Lossy

Bits/(Pixel*Frame) : 0.169

Stream size : 1.27 GiB (75%)

Writing library : XviD 1.2.1 (UTC 2008-12-04)

 

Audio

ID : 1

Format : AC-3

Format/Info : Audio Coding 3

Codec ID : 2000

Duration : 2h 10mn

Bit rate mode : Constant

Bit rate : 448 Kbps

Channel(s) : 6 channels

Sampling rate : 48.0 KHz

Compression mode : Lossy

Stream size : 417 MiB (24%)

Alignment : Split accross interleaves

Interleave, duration : 33 ms (1.00 video frame)

Interleave, preload duration : 500 ms

 

:elenco:

 

Daniel Craig , Chris Evans , Ana de Armas , Jamie Lee Curtis , Michael Shannon , Don Johnson , Toni Collette , LaKeith Stanfield , Christopher Plummer ,

Katherine Langford , Jaeden Martell , Riki Lindhome , Edi Patterson , Frank Oz , K Callan

 

 

:sinopse:

 

A detective investigates the death of a patriarch of an eccentric| combative family.

 

 

:screenshots:

 

 

 

51036628287839948659.jpg

 

 

 

 

:trailer:

 

 

 

:download:

 

:multihost:

Hidden Content

    Give reaction to this post to see the hidden content.

 

Link to comment
Share on other sites

Create an account or sign in to comment

You need to be a member in order to leave a comment

Create an account

Sign up for a new account in our community. It's easy!

Register a new account

Sign in

Already have an account? Sign in here.

Sign In Now
 Share

×
×
  • Create New...