Jump to content
Olá, se você gosta do nosso trabalho, deixe um comentário e dê uma reação é muito importante o autor agradece!

Richard Jewell (2019) - CM8


Bugzito
 Share

Recommended Posts

Richard.Jewell.2019.DVDScr.XVID.AC3.HQ.Hive-CM8 :film4::new:

 

MV5BOTFlODg1MTEtZTJhOC00OTY1LWE0YzctZjRlODdkYWY5ZDM4XkEyXkFqcGdeQXVyNjU1NzU3MzE@._V1_.jpg

 

Hidden Content

    Give reaction to this post to see the hidden content.

 

 

:info:

 

Richard.Jewell.2019.DVDScr.XVID.AC3.HQ.Hive-CM8

Video

ID : 0

Format : MPEG-4 Visual

Format profile : Advanced [email protected]

Format settings : BVOP2 / QPel

Format settings, BVOP : 2

Format settings, QPel : Yes

Format settings, GMC : No warppoints

Format settings, Matrix : Default (H.263)

Muxing mode : Packed bitstream

Codec ID : XVID

Codec ID/Hint : XviD

Duration : 2 h 10 min

Bit rate : 1 398 kb/s

Width : 720 pixels

Height : 304 pixels

Display aspect ratio : 2.35:1

Frame rate : 29.970 (30000/1001) FPS

Color space : YUV

Chroma subsampling : 4:2:0

Bit depth : 8 bits

Scan type : Progressive

Compression mode : Lossy

Bits/(Pixel*Frame) : 0.213

Stream size : 1.28 GiB (84%)

Writing library : XviD 1.2.1 (UTC 2008-12-04)

 

Audio

ID : 1

Format : AC-3

Format/Info : Audio Coding 3

Commercial name : Dolby Digital

Codec ID : 2000

Duration : 2 h 10 min

Bit rate mode : Constant

Bit rate : 256 kb/s

Channel(s) : 2 channels

Channel layout : L R

Sampling rate : 48.0 kHz

Frame rate : 31.250 FPS (1536 SPF)

Bit depth : 16 bits

Compression mode : Lossy

Delay relative to video : 14 ms

Stream size : 240 MiB (15%)

Alignment : Split across interleaves

Interleave, duration : 33 ms (1.00 video frame)

Interleave, preload duration : 500 ms

Service kind : Complete Main

 

:elenco:

 

Paul Walter Hauser , Sam Rockwell , Brandon Stanley , Ryan Boz , Charles Green , Olivia Wilde , Mike Pniewski , Jon Hamm , Ian Gomez ,

Nina Arianda , Kathy Bates , Ronnie Allen , David Lengel , Beth Keener , Grant Roberts

 

 

:sinopse:

 

A história real de Richard Jewell (Paul Walter Hauser), segurança que se tornou um dos principais suspeitos de bombardear as Olimpíadas de Atlanta, no ano de 1996. Na realidade, ele foi o responsável por ajudar inocentes a fugirem do local e avisar da existência de um dos explosivos.

 

 

:screenshots:

 

 

45215923278384648707.jpg

 

 

 

 

:trailer:

 

 

 

:download:

 

:multihost:

Hidden Content

    Give reaction to this post to see the hidden content.

 

Link to comment
Share on other sites

Create an account or sign in to comment

You need to be a member in order to leave a comment

Create an account

Sign up for a new account in our community. It's easy!

Register a new account

Sign in

Already have an account? Sign in here.

Sign In Now
 Share

×
×
  • Create New...