Jump to content
Olá, se você gosta do nosso trabalho, deixe um comentário e dê uma reação é muito importante o autor agradece!

Alita Battle Angel (2019) - SPARKS


Bugzito
 Share

Recommended Posts

Alita.Battle.Angel.2019.1080p.BluRay.x264-SPARKS :film4::new:

 

poster_opt.jpg

 

Hidden Content

    Give reaction to this post to see the hidden content.

 

 

:info:

 

Video

ID : 1

Format : AVC

Format/Info : Advanced Video Codec

Format profile : [email protected]

Format settings : CABAC / 5 Ref Frames

Format settings, CABAC : Yes

Format settings, ReFrames : 5 frames

Codec ID : V_MPEG4/ISO/AVC

Duration : 2 h 1 min

Bit rate : 10.0 Mb/s

Width : 1 920 pixels

Height : 808 pixels

Display aspect ratio : 2.40:1

Frame rate mode : Constant

Frame rate : 23.976 (24000/1001) FPS

Color space : YUV

Chroma subsampling : 4:2:0

Bit depth : 8 bits

Scan type : Progressive

Bits/(Pixel*Frame) : 0.270

Stream size : 8.55 GiB (87%)

Writing library : x264 core 157 r2970 5493be8

Encoding settings : cabac=1 / ref=5 / deblock=1:-3:-3 / analyse=0x3:0x113 / me=umh / subme=8 / psy=1 / psy_rd=1.00:0.00 / mixed_ref=1 / me_range=16 / chroma_me=1 / trellis=1 / 8x8dct=1 / cqm=0 / deadzone=21,11 / fast_pskip=1 / chroma_qp_offset=-2 / threads=25 / lookahead_threads=4 / sliced_threads=0 / nr=0 / decimate=1 / interlaced=0 / bluray_compat=0 / constrained_intra=0 / bframes=3 / b_pyramid=2 / b_adapt=1 / b_bias=0 / direct=3 / weightb=1 / open_gop=0 / weightp=2 / keyint=250 / keyint_min=23 / scenecut=40 / intra_refresh=0 / rc_lookahead=50 / rc=2pass / mbtree=1 / bitrate=10039 / ratetol=1.0 / qcomp=0.60 / qpmin=0 / qpmax=69 / qpstep=4 / cplxblur=20.0 / qblur=0.5 / ip_ratio=1.40 / aq=1:1.00

Language : English

Default : Yes

Forced : No

 

Audio

ID : 2

Format : DTS ES

Format/Info : Digital Theater Systems

Commercial name : DTS-ES Matrix

Codec ID : A_DTS

Duration : 2 h 1 min

Bit rate mode : Constant

Bit rate : 1 509 kb/s

Channel(s) : 6 channels

Channel(s)_Original : 7 channels

Channel layout : C L R Ls Rs Cb LFE

Sampling rate : 48.0 kHz

Frame rate : 93.750 FPS (512 SPF)

Bit depth : 24 bits

Compression mode : Lossy

Stream size : 1.29 GiB (13%)

Language : English

Default : Yes

Forced : No

 

:elenco:

 

Rosa Salazar , Christoph Waltz , Jennifer Connelly , Mahershala Ali , Ed Skrein , Jackie Earle Haley , Keean Johnson , Jorge Lendeborg Jr. , Lana Condor ,

Idara Victor , Jeff Fahey , Eiza González , Derek Mears , Leonard Wu , Racer Maximiliano Rodriguez-Avellan

 

 

:sinopse:

 

Uma ciborgue é descoberta por um cientista. Ela não tem memórias de sua criação, mas possui grande conhecimento de artes marciais. Enquanto busca informações sobre seu passado, trabalha como caçadora de recompensas e descobre um interesse amoroso.

 

28678323638906520880.jpg

 

 

 

:trailer:

 

 

 

:download:

 

:multihost:

Hidden Content

    Give reaction to this post to see the hidden content.

 

 

:notasdicas:

 

FICHEIRO TORRENT

 

Link to comment
Share on other sites

  • 2 months later...

Create an account or sign in to comment

You need to be a member in order to leave a comment

Create an account

Sign up for a new account in our community. It's easy!

Register a new account

Sign in

Already have an account? Sign in here.

Sign In Now
 Share

×
×
  • Create New...