Jump to content
Olá, se você gosta do nosso trabalho, deixe um comentário e dê uma reação é muito importante o autor agradece!

Just Mercy (2020) - CM8


Bugzito
 Share

Recommended Posts

Just.Mercy.2019.720P.DVDScr.X264.AC3.HQ.Hive-CM8 :film4::new:

 

MV5BYmM4YzA5NjUtZGEyOS00YzllLWJmM2UtZjhhNmJhM2E1NjUxXkEyXkFqcGdeQXVyMTkxNjUyNQ@@._V1_SY1000_CR0,0,674,1000_AL_.jpg

 

Hidden Content

    Give reaction to this post to see the hidden content.

 

 

:info:

 

Video

ID : 1

Format : AVC

Format/Info : Advanced Video Codec

Format profile : [email protected]

Format settings : CABAC / 5 Ref Frames

Format settings, CABAC : Yes

Format settings, Reference frames : 5 frames

Muxing mode : Header stripping

Codec ID : V_MPEG4/ISO/AVC

Duration : 2 h 17 min

Bit rate mode : Variable

Bit rate : 2 440 kb/s

Maximum bit rate : 6 000 kb/s

Width : 1 060 pixels

Height : 568 pixels

Display aspect ratio : 1.85:1

Frame rate mode : Constant

Frame rate : 29.970 (30000/1001) FPS

Standard : NTSC

Color space : YUV

Chroma subsampling : 4:2:0

Bit depth : 8 bits

Scan type : Progressive

Bits/(Pixel*Frame) : 0.135

Stream size : 2.33 GiB (89%)

Language : English

Default : Yes

Forced : No

Color range : Limited

Color primaries : BT.709

Transfer characteristics : BT.709

Matrix coefficients : BT.709

 

Audio

ID : 2

Format : AC-3

Format/Info : Audio Coding 3

Commercial name : Dolby Digital

Muxing mode : Header stripping

Codec ID : A_AC3

Duration : 2 h 17 min

Bit rate mode : Constant

Bit rate : 256 kb/s

Channel(s) : 2 channels

Channel layout : L R

Sampling rate : 48.0 kHz

Frame rate : 31.250 FPS (1536 SPF)

Bit depth : 16 bits

Compression mode : Lossy

Stream size : 251 MiB (9%)

Service kind : Complete Main

Default : Yes

Forced : No

 

:elenco:

 

Marcus A. Griffin Jr. , Michael B. Jordan , Jamie Foxx , Brie Larson , Rob Morgan , Tim Blake Nelson , Rafe Spall , O'Shea Jackson Jr. , Lindsay Ayliffe ,

C.J. LeBlanc , Ron Clinton Smith , Dominic Bogart , Hayes Mercure , Karan Kendrick , Kirk Bovill

 

 

:sinopse:

 

Bryan Stevenson (Michael B. Jordan) é um advogado recém-formado em Harvard que abre mão de uma carreira lucrativa em escritórios renomados da costa leste americana para se mudar para o Alabama e se dedicar a prisioneiros condenados à morte que jamais receberam assistência legal justa. Ao chegar lá, Bryan se depara com o caso de Walter McMillian (Jamie Foxx), um homem negro falsamente acusado de um assassinato, mas que nunca teve uma defesa apropriada por conta do preconceito racial na região.

 

 

:screenshots:

 

 

 

88504587140437504521_thumb.png

27651170745977865624_thumb.png

26328616200156282065_thumb.png

 

 

 

 

:trailer:

 

 

 

:download:

 

:multihost:

Hidden Content

    Give reaction to this post to see the hidden content.

 

Link to comment
Share on other sites

  • 1 month later...

Create an account or sign in to comment

You need to be a member in order to leave a comment

Create an account

Sign up for a new account in our community. It's easy!

Register a new account

Sign in

Already have an account? Sign in here.

Sign In Now
 Share

×
×
  • Create New...