Jump to content
Olá, se você gosta do nosso trabalho, deixe um comentário e dê uma reação é muito importante o autor agradece!

Playing With Fire (2019) - CM


Bugzito
 Share

Recommended Posts

Playing.with.Fire.2019.1080p.WEBRip.DD5.1.x264-CM :film4::new:

 

poster_opt.jpg

 

Hidden Content

    Give reaction to this post to see the hidden content.

 

 

:info:

 

Video

ID : 1

Format : AVC

Format/Info : Advanced Video Codec

Format profile : [email protected]

Format settings : CABAC / 2 Ref Frames

Format settings, CABAC : Yes

Format settings, Reference frames : 2 frames

Codec ID : V_MPEG4/ISO/AVC

Duration : 1 h 35 min

Bit rate : 5 740 kb/s

Width : 1 920 pixels

Height : 1 080 pixels

Display aspect ratio : 16:9

Frame rate mode : Constant

Frame rate : 23.976 (24000/1001) FPS

Color space : YUV

Chroma subsampling : 4:2:0

Bit depth : 8 bits

Scan type : Progressive

Bits/(Pixel*Frame) : 0.115

Stream size : 3.85 GiB (94%)

Writing library : x264 core 155 r2901 7d0ff22

Default : Yes

Forced : No

Color range : Limited

Color primaries : BT.709

Transfer characteristics : BT.709

Matrix coefficients : BT.709

 

Audio

ID : 2

Format : AC-3

Format/Info : Audio Coding 3

Commercial name : Dolby Digital

Codec ID : A_AC3

Duration : 1 h 35 min

Bit rate mode : Constant

Bit rate : 384 kb/s

Channel(s) : 6 channels

Channel layout : L R C LFE Ls Rs

Sampling rate : 48.0 kHz

Frame rate : 31.250 FPS (1536 SPF)

Bit depth : 16 bits

Compression mode : Lossy

Stream size : 264 MiB (6%)

Title : English

Language : English

Service kind : Complete Main

Default : Yes

Forced : No

 

:elenco:

 

John Cena, Keegan-Michael Key, John Leguizamo

 

 

:sinopse:

 

Jake Carson (John Cena) é um bombeiro extremamente dedicado e rigoroso, que não aceita que algo ocorra fora das regras impostas pela corporação. Ao resgatarem as crianças Bryan (Brianna Hildebrand), Zoey (Finley Rose Slater) e Will (Christian Convery), Jake e seus companheiros de trabalho enfrentam um enorme desafio: como não conseguem localizar os pais do trio, precisam eles mesmos cuidar das crianças, mesmo sem ter o menor cacoete para a função.

 

 

:screenshots:

 

 

53302923666539224479_thumb.png

36995426483410100230_thumb.png

13518978621826203749_thumb.png

 

 

 

 

:trailer:

 

 

 

:download:

 

:multihost:

Hidden Content

    Give reaction to this post to see the hidden content.

 

Link to comment
Share on other sites

Create an account or sign in to comment

You need to be a member in order to leave a comment

Create an account

Sign up for a new account in our community. It's easy!

Register a new account

Sign in

Already have an account? Sign in here.

Sign In Now
 Share

×
×
  • Create New...